Login
Username:
Password:
[Signup]
[Recover Account]


Browse Torrents

Poll


You must be logged in to view polls



Latest Torrents
60.Minutes.S51E18....
- [Size: 89.05 MB]

Arrow.S07E13.Star....
- [Size: 1.05 GB]

You.Might.Be.the.K...
- [Size: 1.26 GB]

You.Might.Be.the.K...
- [Size: 1.26 GB]

Farzand.2018.Marat...
- [Size: 2.45 GB]


Torrent Details For "The Lego Movie 2 2019 720p HDCAM.AC3.LLG"

The Lego Movie 2 2019 720p HDCAM.AC3.LLG

Download this torrent | Magnet Download
Health:
Seeds: 6
Leechers: 22
Completed:
Last Checked: 12-02-2019 06:04:57
External Torrent
Update Stats



Images Host

Poster
No poster


iMDB
Title: The Lego Movie 2: The Second Part
Year: 2019
Runtime: 106 minutes
Votes: 3884
Rating: 7.3/10
Language: English
Tagline: You're Awesome.
Director: Mike Mitchell
Writing By: Phil Lord,Christopher Miller,Phil Lord,Christopher Miller,Matthew Fogel,
Produced By: Will Allegra,Matthew Ashton,Christopher DeFaria,Brendan Ferguson,Jinko Gotoh,Ryan Halprin,Chris Leahy,Roy Lee,Dan Lin,Kara Lord,Phil Lord,Keith Malone,Chris McKay,Christopher Miller,Kristen Murtha,Zareh Nalbandian,Greg Silverman,Rebecca Karch Tomlinson,Courtenay Valenti,Jill Wilfert,
Music: Mark Mothersbaugh
Cast:
Chris Pratt as Emmet Brickowski / Rex Dangervest
Elizabeth Banks as Wyldstyle / Lucy
Will Arnett as Batman
Tiffany Haddish as Queen Watevra Wa'Nabi
Stephanie Beatriz as General Mayhem / Sweet Mayhem
Alison Brie as Unikitty / Ultrakatty
Nick Offerman as MetalBeard
Charlie Day as Benny
Maya Rudolph as Mom
Will Ferrell as President Business / Dad
Trailers:
International Trailer
Official Trailer #2
Teaser Trailer


Watch-Free-HD     Download

Details
Name:The Lego Movie 2 2019 720p HDCAM.AC3.LLG
Description:

Quote:



******************************Thumbnail:**********************

 

******************************Screenshots:********************

 Screenshot 1

 Screenshot 2

 Screenshot 3

 Screenshot 4

 Screenshot 5

 Screenshot 6

 Screenshot 7

 Screenshot 8

 Screenshot 9

 Screenshot 0


******************************************************

The Lego Movie 2 2019 720p HDCAM.AC3.LLG.mp4
Format                                   : MPEG-4
Format profile                           : Base Media
Codec ID                                 : isom (isom/iso2/avc1/mp41)
File size                                : 1.45 GiB
Duration                                 : 1 h 34 min
Overall bit rate mode                    : Variable
Overall bit rate                         : 2 196 kb/s


Video
ID                                       : 1
Format                                   : AVC
Format/Info                              : Advanced Video Codec
Format profile                           : [email protected]
Format settings                          : CABAC / 1 Ref Frames
Format settings, CABAC                   : Yes
Format settings, RefFrames               : 1 frame
Codec ID                                 : avc1
Codec ID/Info                            : Advanced Video Coding
Duration                                 : 1 h 34 min
Bit rate mode                            : Variable
Bit rate                                 : 2 001 kb/s
Maximum bit rate                         : 6 000 kb/s
Width                                    : 1 280 pixels
Height                                   : 536 pixels
Display aspect ratio                     : 2.40:1
Frame rate mode                          : Constant
Frame rate                               : 29.970 (29970/1000) FPS
Original frame rate                      : 29.970 (30000/1001) FPS
Color space                              : YUV
Chroma subsampling                       : 4:2:0
Bit depth                                : 8 bits
Scan type                                : Progressive
Bits/(Pixel*Frame)                       : 0.097
Stream size                              : 1.32 GiB (91%)


Audio
ID                                       : 2
Format                                   : AC-3
Format/Info                              : Audio Coding 3
Commercial name                          : Dolby Digital
Codec ID                                 : ac-3
Duration                                 : 1 h 34 min
Bit rate mode                            : Constant
Bit rate                                 : 192 kb/s
Channel(s)                               : 2 channels
Channel layout                           : L R
Sampling rate                            : 48.0 kHz
Frame rate                               : 31.250 FPS (1536 SPF)
Bit depth                                : 16 bits
Compression mode                         : Lossy
Stream size                              : 130 MiB (9%)
Service kind                             : Complete Main
Default                                  : Yes
Alternate group                          : 1




********************************************************


Category:Movies > Pre-Releases
Lang:English  English
Total Size:1.50 GB
Info Hash:9bae2b0deed6f67dda96cd8995906441740e451e
Added By:LifeLongg
Date Added:12-02-2019 04:03:08
Downloads:25

Ratings:Not Yet Rated (Log in to rate it)


Tracker:
udp://tracker.openbittorrent.com:80/announce


File List: 


Comments

No comments still posted

Top
Copyright 2018 DownloadHD -|- Page Generated In 0.464828 secs.
-|- RSS Feed -|- Feed Info