Login
Username:
Password:
[Signup]
[Recover Account]


Browse Torrents

Poll


You must be logged in to view polls



Latest Torrents
60.Minutes.S51E18....
- [Size: 89.05 MB]

Arrow.S07E13.Star....
- [Size: 1.05 GB]

You.Might.Be.the.K...
- [Size: 1.26 GB]

You.Might.Be.the.K...
- [Size: 1.26 GB]

Farzand.2018.Marat...
- [Size: 2.45 GB]


Torrent Details For "Alita Battle Angel 2019 720p HDCAM x264 [MW]"

Alita Battle Angel 2019 720p HDCAM x264 [MW]

Download this torrent | Magnet Download
Health:
Seeds: 1,323
Leechers: 373
Completed: 7,651 
Last Checked: 11-02-2019 11:58:17
External Torrent
Update Stats



Images Host

Poster
No poster


Watch-Free-HD     Download

Details
Name:Alita Battle Angel 2019 720p HDCAM x264 [MW]
Description:

 


General
Format                                   : Matroska
Format version                           : Version 4
File size                                : 1.01 GiB
Duration                                 : 1 h 58 min
Overall bit rate                         : 1 219 kb/s

Video
ID                                       : 1
Format                                   : AVC
Format/Info                              : Advanced Video Codec
Format profile                           : [email protected]
Format settings                          : CABAC / 4 Ref Frames
Format settings, CABAC                   : Yes
Format settings, RefFrames               : 4 frames
Codec ID                                 : V_MPEG4/ISO/AVC
Duration                                 : 1 h 58 min
Bit rate                                 : 1 100 kb/s
Width                                    : 1 280 pixels
Height                                   : 536 pixels
Display aspect ratio                     : 2.40:1
Frame rate mode                          : Constant
Frame rate                               : 29.970 (30000/1001) FPS
Color space                              : YUV
Chroma subsampling                       : 4:2:0
Bit depth                                : 8 bits
Scan type                                : Progressive
Bits/(Pixel*Frame)                       : 0.053
Stream size                              : 923 MiB (89%)
Writing library                          : x264 core 157 r2935 545de2f

Audio
ID                                       : 2
Format                                   : AAC LC
Codec ID                                 : A_AAC-2
Duration                                 : 1 h 58 min
Bit rate                                 : 128 kb/s
Channel(s)                               : 2 channels
Channel layout                           : L R
Sampling rate                            : 48.0 kHz
Frame rate                               : 46.875 FPS (1024 SPF)
Compression mode                         : Lossy
Delay relative to video                  : -21 ms
Stream size                              : 109 MiB (11%)
Language                                 : English
Default                                  : Yes
Forced                                   : No


Click To View Image

 http://pichub.site/image/k0mLX
 http://pichub.site/image/k0uQ8
 http://pichub.site/image/k0UG5
 http://pichub.site/image/k0N7J
 http://pichub.site/image/k00Ij
 http://pichub.site/image/k0vZh

Category:Movies > Pre-Releases
Lang:English  English
Total Size:1.01 GB
Info Hash:f777dc1397c3ad10d2881dae255b6ed882ae77e7
Added By:Freaky
Date Added:10-02-2019 11:23:07
Downloads:62

Ratings:Not Yet Rated (Log in to rate it)


Tracker:
udp://tracker.coppersurfer.tk:6969/announce


File List: 


Comments

No comments still posted

Top
Copyright 2018 DownloadHD -|- Page Generated In 0.317464 secs.
-|- RSS Feed -|- Feed Info