Login
Username:
Password:
[Signup]
[Recover Account]


Browse Torrents

Poll


You must be logged in to view polls



Latest Torrents
The Purity of Veng...
- [Size: 990.81 MB]

The Redrum - A Lov...
- [Size: 769.23 MB]

Stargate Origins C...
- [Size: 898.84 MB]

Redrum (2018) HInd...
- [Size: 720.49 MB]

The Prodigy 2019 7...
- [Size: 1.92 GB]


Torrent Details For "Protector S01 2018 x264 720p Esub Netflix Dual Audio Hindi Tur GOPISAHI"

Protector S01 2018 x264 720p Esub Netflix Dual Audio Hindi Tur GOPISAHI

Download this torrent | Magnet Download
Health:
Seeds: 9
Leechers: 298
Completed:
Last Checked: 21-01-2019 09:34:07
External Torrent
Update Stats



Images Host

Poster
No poster


Watch-Free-HD     Download

Details
Name:Protector S01 2018 x264 720p Esub Netflix Dual Audio Hindi Tur GOPISAHI
Description:
 http://www.gopisahi.pw/

Format                         : Matroska
Format version                 : Version 4 / Version 2
File size                      : 259 MiB
Duration                       : 45 min 32 s
Overall bit rate               : 794 kb/s

Video
Format                         : AVC
Format/Info                    : Advanced Video Codec
Codec ID                       : V_MPEG4/ISO/AVC
Duration                       : 45 min 32 s
Bit rate                       : 599 kb/s
Width                          : 1 280 pixels
Height                         : 640 pixels
Display aspect ratio           : 2.000
Frame rate mode                : Constant
Frame rate                     : 24.000 FPS
Color space                    : YUV
Chroma subsampling             : 4:2:0
Bit depth                      : 8 bits
Scan type                      : Progressive
Bits/(Pixel*Frame)             : 0.030
Stream size                    : 195 MiB (75%)
Writing library                : x264 core 157 r2935 545de2f

Audio #1
Format                         : AAC
Duration                       : 45 min 32 s
Bit rate                       : 96.0 kb/s
Channel(s)                     : 2 channels
Channel positions              : Front: L R
Sampling rate                  : 48.0 kHz
Frame rate                     : 46.875 FPS (1024 SPF)
Compression mode               : Lossy
Delay relative to video        : -42 ms
Stream size                    : 31.2 MiB (12%)
Language                       : Hindi

Audio #2
Format                         : AAC
Duration                       : 45 min 32 s
Bit rate                       : 96.0 kb/s
Channel(s)                     : 2 channels
Channel positions              : Front: L R
Sampling rate                  : 48.0 kHz
Frame rate                     : 46.875 FPS (1024 SPF)
Compression mode               : Lossy
Delay relative to video        : -21 ms
Stream size                    : 31.3 MiB (12%)
Language                       : Turkish

Text
Language                       : English


Category:Movies > Hollywood Dub
Lang:Hindi
Total Size:2.18 GB
Info Hash:83e30a76f4b1355ba9ca7507f0ea9bda1e2a832a
Added By:gopisahi
Date Added:21-01-2019 05:19:41
Downloads:385

Ratings:Not Yet Rated (Log in to rate it)


Tracker:
udp://tracker.coppersurfer.tk:6969/announce


File List: 


Comments

No comments still posted

Top
Copyright 2018 DownloadHD -|- Page Generated In 1.374880 secs.
-|- RSS Feed -|- Feed Info