Login
Username:
Password:
[Signup]
[Recover Account]


Browse Torrents

Poll


You must be logged in to view polls



Latest Torrents
Instant.Death.2017...
- [Size: 5.54 GB]

Suits.S08E15.Stalk...
- [Size: 1.94 GB]

Instant.Death.2017...
- [Size: 611.65 MB]

Seth.Meyers.2019.0...
- [Size: 581.53 MB]

Instant.Death.2017...
- [Size: 3.32 GB]


Torrent Details For "Ajab Singh Ki Gajab Kahani 2018 1x264 720p Esub Amazon Hindi GOPISAHI"

Ajab Singh Ki Gajab Kahani 2018 1x264 720p Esub Amazon Hindi GOPISAHI

Download this torrent | Magnet Download
Health:
Seeds: 283
Leechers: 445
Completed: 479 
Last Checked: 13-01-2019 18:24:10
External Torrent
Update Stats



Images Host

Poster
No poster


Watch-Free-HD     Download

Details
Name:Ajab Singh Ki Gajab Kahani 2018 1x264 720p Esub Amazon Hindi GOPISAHI
Description:
 http://www.gopisahi.pw/

Format                         : Matroska
Format version                 : Version 4 / Version 2
File size                      : 643 MiB
Duration                       : 1 h 52 min
Overall bit rate               : 797 kb/s
Movie name                     : Ajab Singh Ki Gajab Kahani 2018 GOPISAHI

Video
Format                         : AVC
Codec ID                       : V_MPEG4/ISO/AVC
Duration                       : 1 h 52 min
Bit rate                       : 699 kb/s
Width                          : 1 280 pixels
Height                         : 528 pixels
Display aspect ratio           : 2.40:1
Frame rate mode                : Constant
Frame rate                     : 24.000 FPS
Color space                    : YUV
Chroma subsampling             : 4:2:0
Bit depth                      : 8 bits
Scan type                      : Progressive
Bits/(Pixel*Frame)             : 0.043
Stream size                    : 563 MiB (88%)
Title                          : GOPISAHI
Writing library                : x264 core 157 r2935 545de2f

Audio
Format                         : AAC
Duration                       : 1 h 52 min
Bit rate                       : 96.0 kb/s
Channel(s)                     : 2 channels
Channel positions              : Front: L R
Sampling rate                  : 48.0 kHz
Frame rate                     : 46.875 FPS (1024 SPF)
Compression mode               : Lossy
Delay relative to video        : -21 ms
Stream size                    : 77.4 MiB (12%)
Title                          : GOPISAHI
Language                       : Hindi

Text
Language                       : English


Category:Movies > Bollywood
Lang:Hindi
Total Size:642.52 MB
Info Hash:5c3dce8ff95da0818fe98a90ea6d1019781fcd0d
Added By:gopisahi
Date Added:13-01-2019 05:28:44
Downloads:279

Ratings:Not Yet Rated (Log in to rate it)


Tracker:
udp://tracker.coppersurfer.tk:6969/announce


File List: 


Comments

No comments still posted

Top
Copyright 2018 DownloadHD -|- Page Generated In 2.176693 secs.
-|- RSS Feed -|- Feed Info