Login
Username:
Password:
[Signup]
[Recover Account]


Browse Torrents

Poll


You must be logged in to view polls



Latest Torrents
Jannat (2019) Bang...
- [Size: 1.82 GB]

The.Gifted.S02E13....
- [Size: 1.42 GB]

The.Song.of.Sway.L...
- [Size: 1.38 GB]

Jamai Badal (2019)...
- [Size: 902.57 MB]

Sanju.2018.1080p.B...
- [Size: 42.98 GB]


Torrent Details For "Sona Spa (2013) Hindi 720p WEB-DL x264 AC3-Sun George (Requested)"

Sona Spa (2013) Hindi 720p WEB-DL x264 AC3-Sun George (Requested)

Download this torrent | Magnet Download
Health:
Seeds: 231
Leechers: 362
Completed: 722 
Last Checked: 13-01-2019 19:02:25
External Torrent
Update Stats



Images Host

Poster


iMDB
Title: Sona Spa
Year: 2013
Runtime: 102 minutes
Votes: 178
Rating: 3.7/10
Language: Hindi
Director: Makrand Deshpande
Writing By: Makrand Deshpande,
Produced By: Sonal Deshpande,Madan Paliwal,
Cast:
Akkash Basnet as Sachin
Nivedita Bhattacharya as Meenakshi
Devyani as Shirley
Shailesh Hejmady as Shailesh - Rucha's Servant
Neha Iyyer as Ritu's Tai
Romi Jaspal as Choksi
Aahana Kumra as Ritu
Pooja Pradhan as Indira
Naseeruddin Shah as Baba Dayanand
Anjum Sharma as Cop


Watch-Free-HD     Download

Details
Name:Sona Spa (2013) Hindi 720p WEB-DL x264 AC3-Sun George (Requested)
Description:
Sona Spa (2013) Hindi 720p WEB-DL x264 AC3-Sun George (Requested)









 




For Direct Links Visit:  http://FilmMaza.Org







 






===================================================================

Source : Downloadhd (Thanks)

General
Format                                   : Matroska
Format version                           : Version 4 / Version 2
File size                                : 1.23 GiB
Duration                                 : 1 h 42 min
Overall bit rate                         : 1 716 kb/s
Movie name : Sona Spa (2013) Hindi 720p WEB-DL x264 AC3-Sun George (Requested)

===================================================================

Video
ID                                       : 1
Format                                   : AVC
Format/Info                              : Advanced Video Codec
Format profile                           : [email protected]
Format settings                          : CABAC / 4 Ref Frames
Format settings, CABAC                   : Yes
Format settings, RefFrames               : 4 frames
Codec ID                                 : V_MPEG4/ISO/AVC
Duration                                 : 1 h 42 min
Bit rate                                 : 1 500 kb/s
Width                                    : 1 280 pixels
Height                                   : 544 pixels
Display aspect ratio                     : 2.35:1
Frame rate mode                          : Variable
Frame rate                               : 24.000 FPS
Color space                              : YUV
Chroma subsampling                       : 4:2:0
Bit depth                                : 8 bits
Scan type                                : Progressive
Bits/(Pixel*Frame)                       : 0.090
Stream size                              : 1.06 GiB (87%)
Title                                    : Sun George

===================================================================

Audio
ID                                       : 2
Format                                   : AC-3
Format/Info                              : Audio Coding 3
Codec ID                                 : A_AC3
Duration                                 : 1 h 42 min
Bit rate mode                            : Constant
Bit rate                                 : 224 kb/s
Channel(s)                               : 2 channels
Channel positions                        : Front: L R
Sampling rate                            : 44.1 kHz
Frame rate                               : 28.711 FPS (1536 SPF)
Bit depth                                : 16 bits
Compression mode                         : Lossy
Delay relative to video                  : 10 ms
Stream size                              : 164 MiB (13%)
Title                                    : Sun George
Language                                 : Hindi
Service kind                             : Complete Main
Default                                  : Yes
Forced                                   : No




 

 

 

 

 

 

 

 

 

 
Category:Movies > Bollywood
Lang:Hindi
Total Size:1.25 GB
Info Hash:526ded12008a7cc8d6568d3018b265524a87ae8a
Added By:sungeorge
Date Added:12-01-2019 09:28:25
Downloads:996

Ratings:Not Yet Rated (Log in to rate it)


Tracker:
udp://tracker.pirateparty.gr:6969/announce

This Torrent also has backup trackers
URLSeedersLeechersCompleted
http://tracker.fastdownload.xyz:443/announce000
http://seeders-paradise.org:443/announce000
http://share.camoe.cn:8080/announce000


File List: 



NFO:

Comments

No comments still posted

Top
Copyright 2018 DownloadHD -|- Page Generated In 1.902928 secs.
-|- RSS Feed -|- Feed Info